06.01.1800:01 Uhr Money Boy - Rap up Rap320 kbit/s 0 / 02.507 Hits VID P2P DDL 0 Kommentare | Siguiente capitulo | Braun Probe Covers Thermoscan Replacement Lens Filter Ear Thermometer Caps 6520

На пятьдесят оттенков темнее / Fifty Shades Darker (Джеймс Фоули / James Foley) [2017, США, драма, мелодрама, BDRip] [Theatrical Cut] Dub + Original Eng + Sub Rus, Eng 

Цитировать
На пятьдесят оттенков темнее / Fifty Shades Darker / Theatrical Cut- Год выпуска: 2017
Страна: США / Universal Pictures
Жанр: драма, мелодрама
Продолжительность: 01:57:48
Перевод: Профессиональный (дублированный) BD CEE
Субтитры: русские (форсированные, полные), английские (полные)
Оригинальная аудиодорожка: английский-Режиссер: Джеймс Фоули / James Foley-В ролях: Дакота Джонсон, Джейми Дорнан, Эрик Джонсон, Элоиза Мамфорд, Белла Хиткот, Рита Ора, Люк Граймс, Виктор Расук, Макс Мартини, Брюс Олтмен.-Описание: Продолжение известной своей весьма селективной эротической направленностью экранизации романа Э.Л.Джеймс «Пятьдесят оттенков серого». Действующие лица все те же - приятного вида молодой любитель затейливо получаемых острых ощущений, обремененный ношей миллиардного состояния и юная, некогда романтично настроенная барышня. Однако расстановка силовых позиций в сформировавшейся паре медленно, но верно движется в сторону триллера: отношения между Анастейшей и Кристианом обостряются, когда в поле зрения появляются бывшие любовницы миллиардера — опытная и самоуверенная Элена (Ким Бейсингер) и крайне эмоциональная Лейла (Белла Хиткот). Итак, многогранный своими оттенками четырехугольник, психологические демоны Кристиана и неукротимая ревность Анастейши во второй части киноромана…-Рейтинг
kinopoisk.ru 5.115 (26 534)
imdb.com 4.70 (43 843)
-Качество видео: BDRip (исходник: 50_SD_RMX_BLUEBIRD)
Формат видео: AVI | Sample
Видео: 720x304 (2.37:1), 23.976 fps, XviD build 73 ~1739 kbps avg, 0.33 bit/pixel
Аудио 1: 48 kHz, AC3 Dolby Digital, 3/2 (L,C,R,l,r) + LFE ch, ~448.00 kbps avg | RUS
Аудио 2: 48 kHz, AC3 Dolby Digital, 3/2 (L,C,R,l,r) + LFE ch, ~448.00 kbps avg | ENG

Инфо

Формат : AVI
Формат/Информация : Audio Video Interleave
Профиль формата : OpenDML
Размер файла : 2,18 Гбайт
Продолжительность : 1 ч. 57 м.
Общий поток : 2653 Кбит/сек
Название фильма : На пятьдесят оттенков темнее / Fifty Shades Darker (2017) Theatrical Cut
Программа кодирования : VirtualDubMod 1.5.10.2 (build 2540/release)
Библиотека кодирования : VirtualDubMod build 2540/release
Примечание : BDRip by Seven
Видео
Идентификатор : 0
Формат : MPEG-4 Visual
Профиль формата : Advanced Simple@L5
Параметр BVOP формата : 1
Параметр QPel формата : Нет
Параметр GMC формата : Без точки перехода
Параметр матрицы формата : Выборочная
Идентификатор кодека : XVID
Идентификатор кодека/Подсказка : XviD
Продолжительность : 1 ч. 57 м.
Битрейт : 1739 Кбит/сек
Ширина : 720 пикселей
Высота : 304 пикселя
Соотношение сторон : 2,35:1
Частота кадров : 23,976 (24000/1001) кадра/сек
Цветовое пространство : YUV
Субдискретизация насыщенности : 4:2:0
Битовая глубина : 8 бит
Тип развёртки : Прогрессивная
Метод сжатия : С потерями
Бит/(Пиксели*Кадры) : 0.331
Размер потока : 1,43 Гбайт (66%)
Библиотека кодирования : XviD 73
Аудио #1
Идентификатор : 1
Формат : AC-3
Формат/Информация : Audio Coding 3
Параметр Endianness формата : Big
Идентификатор кодека : 2000
Продолжительность : 1 ч. 57 м.
Вид битрейта : Постоянный
Битрейт : 448 Кбит/сек
Каналы : 6 каналов
Расположение каналов : Front: L C R, Side: L R, LFE
Частота : 48,0 КГц
Частота кадров : 31,250 кадров/сек (1536 spf)
Битовая глубина : 16 бит
Метод сжатия : С потерями
Размер потока : 377 Мбайт (17%)
Выравнивание : Разделение по промежуткам
Продолжительность промежутка : 42 мс. (1,00 видеокадр)
Время предзагрузки промежутка : 500 мс.
Аудио #2
Идентификатор : 2
Формат : AC-3
Формат/Информация : Audio Coding 3
Параметр Endianness формата : Big
Идентификатор кодека : 2000
Продолжительность : 1 ч. 57 м.
Вид битрейта : Постоянный
Битрейт : 448 Кбит/сек
Каналы : 6 каналов
Расположение каналов : Front: L C R, Side: L R, LFE
Частота : 48,0 КГц
Частота кадров : 31,250 кадров/сек (1536 spf)
Битовая глубина : 16 бит
Метод сжатия : С потерями
Размер потока : 377 Мбайт (17%)
Выравнивание : Разделение по промежуткам
Продолжительность промежутка : 42 мс. (1,00 видеокадр)
Время предзагрузки промежутка : 500 мс.

Скриншоты

Вы не можете начинать темы
Вы не можете отвечать на сообщения
Вы не можете редактировать свои сообщения
Вы не можете удалять свои сообщения
Вы не можете голосовать в опросах
Вы не можете прикреплять файлы к сообщениям
Вы можете скачивать файлы
Sitemap