Hello Ladies | Snollebollekes - Links Rechts | Live op 538Koningsdag 2018 | Non-Fiction

Т2 Трейнспоттинг / На игле 2 / T2 Trainspotting (Дэнни Бойл / Danny Boyle) [2017, Великобритания, драма, BDRip] Dub 

Цитировать
Т2 Трейнспоттинг / На игле 2 / T2 Trainspotting
Страна: Великобритания
Жанр: драма
Год выпуска: 2017
Продолжительность: 01:57:22
Перевод: Профессиональный (дублированный)
Субтитры: нет
Оригинальная аудиодорожка: нет-Режиссер: Дэнни Бойл / Danny Boyle-В ролях: Юэн МакГрегор, Юэн Бремнер, Джонни Ли Миллер, Роберт Карлайл, Кевин МакКидд, Кайл Фицпатрик, Келли Макдоналд, Анжела Недялкова, Полин Линч, Джеймс Космо-Описание: Прошло двадцать лет. Рентон возвращается в единственное место, которое может считать своим домом. Они все ждут его: Кочерыжка, Кайфолом и Бегби. А вместе с ними другие старые знакомые: месть и страх, ненависть и любовь, дружба, сожаление и надежда. Все они выстроились в шеренгу, приветствуя Рентона, и он, кажется, готов к ним присоединиться.-Качество видео: BDRip
Формат видео: AVI
Видео: 720x384 (1.88:1), 23.976 fps, XviD build 73 ~1385 kbps avg, 0.21 bit/pixel
Аудио: 48 kHz, AC3 Dolby Digital, 3/2 (L,C,R,l,r) + LFE ch, ~384 kbps-Сэмпл-

MI

Format                      : AVI
Format/Info                 : Audio Video Interleave
File size                   : 1.46 GiB
Duration                    : 1 h 57 min
Overall bit rate            : 1 779 kb/s
Writing application         : VirtualDubMod 1.5.10.3 | www.virtualdub-fr.org || (build 2550/release)
Writing library             : VirtualDubMod build 2550/release
Video
ID                          : 0
Format                      : MPEG-4 Visual
Format profile              : Advanced Simple@L5
Format settings, BVOP       : 1
Format settings, QPel       : No
Format settings, GMC        : No warppoints
Format settings, Matrix     : Custom
Codec ID                    : DX50
Codec ID/Hint               : DivX 5
Duration                    : 1 h 57 min
Bit rate                    : 1 385 kb/s
Width                       : 720 pixels
Height                      : 384 pixels
Display aspect ratio        : 1.85:1
Frame rate                  : 23.976 (24000/1001) FPS
Color space                 : YUV
Chroma subsampling          : 4:2:0
Bit depth                   : 8 bits
Scan type                   : Progressive
Compression mode            : Lossy
Bits/(Pixel*Frame)          : 0.209
Stream size                 : 1.14 GiB (78%)
Writing library             : XviD 73
Audio
ID                          : 1
Format                      : AC-3
Format/Info                 : Audio Coding 3
Format settings, Endianness : Big
Codec ID                    : 2000
Duration                    : 1 h 57 min
Bit rate mode               : Constant
Bit rate                    : 384 kb/s
Channel(s)                  : 6 channels
Channel positions           : Front: L C R, Side: L R, LFE
Sampling rate               : 48.0 kHz
Frame rate                  : 31.250 FPS (1536 spf)
Bit depth                   : 16 bits
Compression mode            : Lossy
Stream size                 : 322 MiB (22%)
Alignment                   : Split accross interleaves
Interleave, duration        : 42  ms (1.00 video frame)
Interleave, preload duratio : 500  ms
Service kind                : Complete Main

Скриншоты

Вы не можете начинать темы
Вы не можете отвечать на сообщения
Вы не можете редактировать свои сообщения
Вы не можете удалять свои сообщения
Вы не можете голосовать в опросах
Вы не можете прикреплять файлы к сообщениям
Вы можете скачивать файлы
Sitemap