tubidy mp3 musica gratis para celular | Судьба: История Камакуры | Tập 20 Ngoan Tây Du

Т2 Трейнспоттинг / На игле 2 / T2 Trainspotting (Дэнни Бойл / Danny Boyle) [2017, Великобритания, драма, BDRip-AVC] Dub + Original + Sub (rus, eng) 

Цитировать
Т2 Трейнспоттинг / На игле 2 / T2 Trainspotting«Торчи от чего-то большего»- Страна: Великобритания
Жанр: драма
Год выпуска: 2017
Продолжительность: 01:57:22
Перевод: Профессиональный (дублированный) (BD EUR)
Оригинальная аудиодорожка: английский
Субтитры: русские (полные) английские (полные)
Навигация по главам: есть
Режиссер: Дэнни Бойл / Danny Boyle
В ролях: Юэн МакГрегор (Renton), Юэн Бремнер (Spud), Джонни Ли Миллер (Simon), Роберт Карлайл (Begbie / Begbie's Father), Кевин МакКидд (Tommy, хроника), Кайл Фицпатрик (Fergus), Келли Макдоналд (Diane), Анжела Недялкова (Veronika), Полин Линч (Lizzy), Джеймс Космо (Renton's Father), Айлин Николас (Renton's Mother), Ширли Хендерсон (Gail)
Описание: Прошло двадцать лет. Рентон возвращается в единственное место, которое может считать своим домом. Они все ждут его: Кочерыжка, Кайфолом и Бегби. А вместе с ними другие старые знакомые: месть и страх, ненависть и любовь, дружба, сожаление и надежда. Все они выстроились в шеренгу, приветствуя Рентона, и он, кажется, готов к ним присоединиться.- -Качество: BDRip-AVC (исходник - Blu-ray|T2_TRAINSPOTTING_HDCLUB)
Формат видео: MKV
Видео: x264, 984x532 (1.85:1) 23,976 fps, ~1990 kbps, 0.159 bit/pixel
Аудио 1: 48 kHz, AC3 Dolby Digital, 3/2 (L,C,R,l,r) + LFE ch, ~448 kbps [русский]
Аудио 2: 48 kHz, AC3 Dolby Digital, 2/0 (L, R) ch, ~192 kbps [английский]
Формат субтитров: softsub (SRT)-

MediaInfo | x264 log

Format : Matroska
Format version : Version 4 / Version 2
File size : 2.20 GiB
Duration : 1h 57 min
Overall bit rate : 2 683 kb/s
Movie name : Т2 Трейнспоттинг (На игле 2) / T2 Trainspotting (2017) :: AFM ::
Encoded date : UTC 2017-05-28 01:09:01
Writing application : mkvmerge v8.3.0 ('Over the Horizon') 32bit
Writing library : libebml v1.3.1 + libmatroska v1.4.2
Video
ID : 1
Format : AVC
Format/Info : Advanced Video Codec
Format profile : High@L4.1
Format settings, CABAC : Yes
Format settings, ReFrames : 11 frames
Codec ID : V_MPEG4/ISO/AVC
Duration : 1h 57 min
Bit rate : 1 990 kb/s
Width : 984 pixels
Height : 532 pixels
Display aspect ratio : 1.85:1
Frame rate mode : Constant
Frame rate : 23.976 (24000/1001) FPS
Color space : YUV
Chroma subsampling : 4:2:0
Bit depth : 8 bits
Scan type : Progressive
Bits/(Pixel*Frame) : 0.159
Stream size : 1.63 GiB (74%)
Title : BDRip by AFM
Writing library : x264 core 150 r2829+45 72008f5 7mod [8-bit@all X86_64]
Encoding settings : cabac=1 / ref=11 / deblock=1:-2:-2 / analyse=0x3:0x113 / me=umh / subme=10 / psy=1 / fade_compensate=0.00 / psy_rd=1.00:0.00 / mixed_ref=1 / me_range=32 / chroma_me=0 / trellis=2 / 8x8dct=1 / cqm=0 / deadzone=21,11 / fast_pskip=0 / chroma_qp_offset=-2 / threads=6 / lookahead_threads=1 / sliced_threads=0 / nr=0 / decimate=1 / interlaced=0 / bluray_compat=0 / constrained_intra=0 / fgo=0 / bframes=12 / b_pyramid=2 / b_adapt=2 / b_bias=0 / direct=1 / weightb=1 / open_gop=0 / weightp=2 / keyint=240 / keyint_min=23 / scenecut=40 / intra_refresh=0 / rc_lookahead=60 / rc=crf / mbtree=0 / crf=18.9000 / qcomp=0.65 / qpmin=0:0:0 / qpmax=69:69:69 / qpstep=4 / vbv_maxrate=50000 / vbv_bufsize=62500 / crf_max=0.0 / nal_hrd=none / filler=0 / ip_ratio=1.35 / pb_ratio=1.27 / aq=4:0.80 / aq-sensitivity=10.00 / aq-factor=1.00:1.00:1.00 / aq2=0 / aq3=0 / zones=161675,168840,q=27
Language : English
Default : Yes
Forced : No
Audio #1
ID : 2
Format : AC-3
Format/Info : Audio Coding 3
Mode extension : CM (complete main)
Format settings, Endianness : Big
Codec ID : A_AC3
Duration : 1h 57 min
Bit rate mode : Constant
Bit rate : 448 kb/s
Channel(s) : 6 channels
Channel positions : Front: L C R, Side: L R, LFE
Sampling rate : 48.0 kHz
Frame rate : 31.250 FPS (1536 spf)
Compression mode : Lossy
Stream size : 376 MiB (17%)
Title : Dub, AC3 5.1 ~448 kbps
Language : Russian
Default : Yes
Forced : No
Audio #2
ID : 3
Format : AC-3
Format/Info : Audio Coding 3
Mode extension : CM (complete main)
Format settings, Endianness : Big
Codec ID : A_AC3
Duration : 1h 57 min
Bit rate mode : Constant
Bit rate : 192 kb/s
Channel(s) : 2 channels
Channel positions : Front: L R
Sampling rate : 48.0 kHz
Frame rate : 31.250 FPS (1536 spf)
Compression mode : Lossy
Stream size : 161 MiB (7%)
Title : Original, AC3 2.0 ~192 kbps
Language : English
Default : No
Forced : No
Text #1
ID : 4
Format : UTF-8
Codec ID : S_TEXT/UTF8
Codec ID/Info : UTF-8 Plain Text
Language : Russian
Default : No
Forced : No
Text #2
ID : 5
Format : UTF-8
Codec ID : S_TEXT/UTF8
Codec ID/Info : UTF-8 Plain Text
Language : English
Default : No
Forced : No
Menu
00:00:00.000 : en:Chapter 1
00:08:03.274 : en:Chapter 2
00:14:26.574 : en:Chapter 3
00:20:20.552 : en:Chapter 4
00:27:35.236 : en:Chapter 5
00:36:22.138 : en:Chapter 6
00:44:13.192 : en:Chapter 7
00:52:33.358 : en:Chapter 8
00:57:29.821 : en:Chapter 9
01:03:28.179 : en:Chapter 10
01:09:31.750 : en:Chapter 11
01:15:48.752 : en:Chapter 12
01:22:57.305 : en:Chapter 13
01:31:03.332 : en:Chapter 14
01:37:39.979 : en:Chapter 15
01:45:56.558 : en:Chapter 16

x264

x264 [info]: frame I:1604 Avg QP:17.77 size: 62803
x264 [info]: frame P:36856 Avg QP:19.30 size: 22575
x264 [info]: frame B:130380 Avg QP:21.92 size: 6626
x264 [info]: consecutive B-frames: 2.1% 2.2% 5.2% 32.7% 15.4% 29.1% 5.5% 5.5% 0.7% 0.6% 0.3% 0.6% 0.1%
x264 [info]: mb I I16..4: 9.2% 68.9% 21.9%
x264 [info]: mb P I16..4: 3.0% 10.2% 2.2% P16..4: 40.9% 21.9% 13.3% 0.0% 0.0% skip: 8.5%
x264 [info]: mb B I16..4: 0.1% 0.8% 0.3% B16..8: 34.6% 7.6% 2.1% direct: 6.1% skip:48.4% L0:41.5% L1:46.9% BI:11.7%
x264 [info]: 8x8 transform intra:67.3% inter:66.8%
x264 [info]: coded y,uvDC,uvAC intra: 71.3% 83.6% 67.4% inter: 17.9% 25.2% 8.8%
x264 [info]: i16 v,h,dc,p: 53% 17% 8% 23%
x264 [info]: i8 v,h,dc,ddl,ddr,vr,hd,vl,hu: 14% 10% 8% 9% 12% 13% 12% 11% 11%
x264 [info]: i4 v,h,dc,ddl,ddr,vr,hd,vl,hu: 23% 9% 5% 8% 12% 12% 11% 10% 10%
x264 [info]: i8c dc,h,v,p: 40% 22% 20% 18%
x264 [info]: Weighted P-Frames: Y:97.1% UV:2.9%
x264 [info]: ref P L0: 49.7% 10.2% 16.5% 5.8% 4.9% 3.5% 3.3% 1.7% 1.6% 1.3% 1.4% 0.1% 0.0%
x264 [info]: ref B L0: 76.5% 10.1% 5.0% 2.4% 1.9% 1.4% 1.2% 0.8% 0.5% 0.2%
x264 [info]: ref B L1: 94.7% 5.3%
x264 [info]: kb/s:2041.05

Скриншоты

с названием

Вы не можете начинать темы
Вы не можете отвечать на сообщения
Вы не можете редактировать свои сообщения
Вы не можете удалять свои сообщения
Вы не можете голосовать в опросах
Вы не можете прикреплять файлы к сообщениям
Вы можете скачивать файлы
Sitemap