Vaughn Stein | HD Ali's Wedding | Datenschutz

На пятьдесят оттенков темнее / Fifty Shades Darker (Джеймс Фоули / James Foley) [2017, США, Драма, мелодрама, BDRip] [Расширенная версия / Unrated Edition] Dub 

Цитировать
На пятьдесят оттенков темнее / Fifty Shades Darker
«Мир роскоши и соблазна ждёт вас»
- Год выхода: 2017
Выпущено: США / Universal Pictures
Жанр: драма, мелодрама
Продолжительность: 02:11:28
Перевод: Профессиональный (полное дублирование) BD CEE |Лицензия|
Субтитры: нет-Режиссер:
Джеймс Фоули / James Foley-В ролях:
Дакота Джонсон (Anastasia Steele), Джейми Дорнан (Christian Grey), Ким Бейсингер (Elena Lincoln), Люк Граймс (Elliot Grey), Эрик Джонсон (Jack Hyde), Элоиза Мамфорд (Kate Kavanagh), Белла Хиткот (Leila), Рита Ора (Mia Grey), Виктор Расук (Jose), Макс Мартини (Taylor), Брюс Олтмен (Jerry Roach), Марша Гей Харден (Grace Trevelyan Grey)-О фильме:
Пока Кристиан Грей борется со своими внутренними демонами, Анастейша Стил вынуждена противостоять гневу и зависти тех женщин, что были с Кристианом до нее.-Релиз групп | | IMDB | КиноПоиск | Сэмпл |-Качество: BDRip [Fifty.Shades.Darker.2016.1080p.Blu-ray.AVC.DTS-HD.MA.7.1-HDChina]
Формат: AVI
Видео: 720x304 (2.37:1), 23.976 fps, XviD build 67 ~1385 kbps avg, 0.26 bit/pixel
Аудио: 48 kHz, AC3 Dolby Digital, 2/0 (L,R) ch, ~192 kbps avg
-

Скриншоты

-

MediaInfo

Общее
Полное имя                               : D:\Na_50_ottenkov_temnee_2017_BDRip_[Unrated]_by_Dalemake.avi
Формат                                   : AVI
Формат/Информация                        : Audio Video Interleave
Размер файла                             : 1,46 Гбайт
Продолжительность                        : 2 ч. 11 м.
Общий поток                              : 1587 Кбит/сек
Программа кодирования                    : VirtualDubMod 1.5.10.3 | www.virtualdub-fr.org || (build 2550/release)
Библиотека кодирования                   : VirtualDubMod build 2550/release
Видео
Идентификатор                            : 0
Формат                                   : MPEG-4 Visual
Профиль формата                          : Advanced Simple@L5
Параметр BVOP формата                    : 1
Параметр QPel формата                    : Нет
Параметр GMC формата                     : Без точки перехода
Параметр матрицы формата                 : Выборочная
Идентификатор кодека                     : XVID
Идентификатор кодека/Подсказка           : XviD
Продолжительность                        : 2 ч. 11 м.
Битрейт                                  : 1386 Кбит/сек
Ширина                                   : 720 пикселей
Высота                                   : 304 пикселя
Соотношение сторон                       : 2,35:1
Частота кадров                           : 23,976 кадра/сек
Цветовое пространство                    : YUV
Субдискретизация насыщенности            : 4:2:0
Битовая глубина                          : 8 бит
Тип развёртки                            : Прогрессивная
Метод сжатия                             : С потерями
Бит/(Пиксели*Кадры)                      : 0.264
Размер потока                            : 1,27 Гбайт (87%)
Библиотека кодирования                   : XviD 67
Аудио
Идентификатор                            : 1
Формат                                   : AC-3
Формат/Информация                        : Audio Coding 3
Расширение режима                        : CM (complete main)
Параметр Endianness формата              : Big
Идентификатор кодека                     : 2000
Продолжительность                        : 2 ч. 11 м.
Вид битрейта                             : Постоянный
Битрейт                                  : 192 Кбит/сек
Каналы                                   : 2 канала
Расположение каналов                     : Front: L R
Частота                                  : 48,0 КГц
Битовая глубина                          : 16 бит
Метод сжатия                             : С потерями
Размер потока                            : 181 Мбайт (12%)
Выравнивание                             : Разделение по промежуткам
Продолжительность промежутка             : 42  мс. (1,00 видеокадр)
Время предзагрузки промежутка            : 500  мс.
-
Вы не можете начинать темы
Вы не можете отвечать на сообщения
Вы не можете редактировать свои сообщения
Вы не можете удалять свои сообщения
Вы не можете голосовать в опросах
Вы не можете прикреплять файлы к сообщениям
Вы можете скачивать файлы
Sitemap