Citizen Khan: Season ... | Welcome First Time In Korea | The Hollow Crown

7 вещей, которые вы не знали о мужчинах / 7 rzeczy, ktorych nie wiecie o facetach (Кинга Левинская / Kinga Lewinska) [2016, Польша, комедия, BDRip] MVO + Sub Rus (Professor) + Original Pol 

Цитировать
7 вещей, которые вы не знали о мужчинах / 7 rzeczy, ktorych nie wiecie o facetach
Страна: Польша
Жанр: комедия
Год выпуска: 2016
Продолжительность: 01:59:49-Перевод: Любительский многоголосый
Субтитры: русские
Оригинальная аудиодорожка: польский-Режиссер: Кинга Левинская / Kinga Lewinska-В ролях: Петр Гловацкий, Павел Домагаля, Збигнев Замаховский, Мацей Закощчельный, Миколай Рознерский, Александра Хамкало, Лешек Лихота, Альцья Бахледа, Доминика Клузняк-Описание: Главные герои этой романтической комедии - современные мужчины: композитор Кордиан, шоумен Рики, менеджер по рекламе Томаш, польский "Питер Пэн" - Филип, инспектор санэпидемстанции Ярек и ветеран войны Стефан. У каждого из них одна и та же цель - изменить свою жизнь и найти в ней счастье...- -Сэмпл: http://multi-up.com/1155557-Качество видео: BDRip
Формат видео: AVI-Видео: XviD, 640х352, 16:9, 24.000 fps, 1 496 Kbps
Аудио:
Русский - MP3, 48.0 KHz, 128 Kbps, 2 channels
Польский - MP3, 48.0 KHz, 128 Kbps, 2 channels
Формат субтитров: softsub (SRT)

MediaInfo

General
Complete name : 7.Rzeczy.Ktorych.Nie.Wiecie.o.Facetach.2016.BDRip.XviD.avi
Format : AVI
Format/Info : Audio Video Interleave
File size : 1.48 GiB
Duration : 1 h 59 min
Overall bit rate : 1 773 kb/s
Video
ID : 0
Format : MPEG-4 Visual
Format profile : Advanced Simple@L5
Format settings, BVOP : 2
Format settings, QPel : No
Format settings, GMC : No warppoints
Format settings, Matrix : Default (H.263)
Codec ID : XVID
Codec ID/Hint : XviD
Duration : 1 h 59 min
Bit rate : 1 496 kb/s
Width : 640 pixels
Height : 352 pixels
Display aspect ratio : 16:9
Frame rate : 24.000 FPS
Color space : YUV
Chroma subsampling : 4:2:0
Bit depth : 8 bits
Scan type : Progressive
Compression mode : Lossy
Bits/(Pixel*Frame) : 0.277
Stream size : 1.25 GiB (84%)
Writing library : XviD 67
Audio #1
ID : 1
Format : MPEG Audio
Format version : Version 1
Format profile : Layer 3
Mode : Joint stereo
Mode extension : MS Stereo
Codec ID : 55
Codec ID/Hint : MP3
Duration : 1 h 9 min
Source duration : 1 h 59 min
Bit rate mode : Constant
Bit rate : 128 kb/s
Channel(s) : 2 channels
Sampling rate : 48.0 kHz
Compression mode : Lossy
Stream size : 110 MiB (7%)
Alignment : Aligned on interleaves
Interleave, duration : 24 ms (0.58 video frame)
Writing library : LAME3.99r
Encoding settings : -m j -V 4 -q 3 -lowpass 17 -b 128
Audio #2
ID : 2
Format : MPEG Audio
Format version : Version 1
Format profile : Layer 3
Mode : Joint stereo
Mode extension : MS Stereo
Codec ID : 55
Codec ID/Hint : MP3
Duration : 1 h 9 min
Source duration : 1 h 59 min
Bit rate mode : Constant
Bit rate : 128 kb/s
Channel(s) : 2 channels
Sampling rate : 48.0 kHz
Compression mode : Lossy
Stream size : 110 MiB (7%)
Alignment : Aligned on interleaves
Interleave, duration : 24 ms (0.58 video frame)
Writing library : LAME3.99.5

Скриншот c названием фильма

Скриншоты

Пример субтитров

1
00:00:26,380 --> 00:00:28,730
- Рики, как ты себя чувствуешь
опять на Родине? - Супер!
2
00:00:29,730 --> 00:00:31,440
Теперь больше
никогда не уеду!
3
00:00:31,440 --> 00:00:35,140
- Оставайся у нас в Кракове!
- Я обдумаю такой вариант!
4
00:00:36,400 --> 00:00:37,900
Рики, я люблю тебя!
5
00:00:57,560 --> 00:00:59,740
И мы возвращаемся к нашему
специальному гостю...
6
00:00:59,740 --> 00:01:03,460
...артисту первой величины,
обладателю всевозможных наград...
7
00:01:03,480 --> 00:01:06,570
...выступающему на самых
престижных площадках мира...
8
00:01:06,620 --> 00:01:09,490
...и который является нашим
самым главным экспортным товаром...
9
00:01:09,490 --> 00:01:12,040
...помимо яблок -
это Рикки Поправа.
10
00:01:13,740 --> 00:01:14,940
Да, это снова я.
11
00:01:14,960 --> 00:01:19,110
Я уже сбился со счета, Рики, который раз
ты возвращаешься в страну, на сцену?
12
00:01:19,450 --> 00:01:22,980
Я не считал, но ты прав, я люблю
возвращаться, это в моем стиле.
13
00:01:23,250 --> 00:01:28,200
- Что на этот раз приготовил нам мастер возвращений?
- Новую пластинку.
14
00:01:28,910 --> 00:01:31,300
- Которой нет?
- Но будет.
15
00:01:31,340 --> 00:01:36,200
Будет, будет. На самом деле, это будет
мой первый концертный тур...
16
00:01:36,330 --> 00:01:39,050
...и первый диск с песнями,
которые я спою сердцем.
17
00:01:39,300 --> 00:01:41,870
Ты уже проконсультировался
со своим кардиологом?
Вы не можете начинать темы
Вы не можете отвечать на сообщения
Вы не можете редактировать свои сообщения
Вы не можете удалять свои сообщения
Вы не можете голосовать в опросах
Вы не можете прикреплять файлы к сообщениям
Вы можете скачивать файлы
Sitemap