Gone Girl - Das perfekte Opfer | HD Blackkklansman (2018) | Jurassic World: Das gefallene Königreich (Blu-ray)

Кровный отец / Blood Father (Жан - Франсуа Рише / Jean - François Richet) [2016, Франция, боевик, триллер, криминал, WEB-DLRip] AVO (Андрей Гаврилов) 

Цитировать
Кровный отец / Blood Father
Страна: Франция
Жанр: боевик, триллер, криминал
Год выпуска: 2016
Продолжительность: 01:28:12
Перевод: Авторский (одноголосый закадровый) Андрей Гаврилов
Субтитры: нет
Режиссер: Жан - Франсуа Рише / Jean - François Richet
В ролях: Мэл Гибсон, Эрин Мориарти, Диего Луна, Майкл Паркс, Уильям Х. Мэйси, Мигель Сандовал, Дейл Дикки, Ричард Кебрал, Дэниэл Монкада
Описание: Бывший заключенный Джон Линк после условно-досрочного освобождения ходит на собрания общества Анонимных Алкоголиков, в своем скромном трейлере он открыл тату-салон. Линк не намерен возвращаться к преступным делам. Но однажды раздается телефонный звонок: его семнадцатилетняя дочь попала в беду и просит о помощи. Лидия связалась с дурной компанией, подсела на наркотики, а теперь за девушкой охотятся члены мексиканского картеля, ее жизни угрожает опасность. Джон никогда не был близок с дочерью, не принимал участия в ее воспитании. Теперь чувство вины и родительский долг вынуждают его встать на защиту Лидии, путь для этого ему снова придется взять в руки оружие и задействовать старые связи в криминальном мире.
Сэмпл: http://yadi.sk/i/y2qnZVRH3JY39e
Качество видео: WEB-DLRip (Исходник Blood.Father.2016.1080p.WEB-DL.DD5.1.H264-FGT)
Формат видео: AVI
Видео: XviD, 720x304, (2,35:1), 23,976 fps, 981 Кбит/с, 8 бит
Аудио: Русский (АС3, 2 ch (Front: L R), 48,0 KHz, 192 Kbps)

MediaInfo

Общее
Полное имя : F:\Видеофильмы\В и д е о\Кровный отец (боевик, криминал, триллер 2016 год).avi
Формат : AVI
Формат/Информация : Audio Video Interleave
Размер файла : 746 Мбайт
Продолжительность : 1 ч. 28 м.
Общий поток : 1182 Кбит/сек
Программа кодирования : VirtualDubMod 1.5.10.3 | www.virtualdub-fr.org || (build 2550/release)
Библиотека кодирования : VirtualDubMod build 2550/release
Видео
Идентификатор : 0
Формат : MPEG-4 Visual
Профиль формата : Advanced Simple@L5
Параметр BVOP формата : 2
Параметр QPel формата : Нет
Параметр GMC формата : Без точки перехода
Параметр матрицы формата : Выборочная
Идентификатор кодека : XVID
Идентификатор кодека/Подсказка : XviD
Продолжительность : 1 ч. 28 м.
Битрейт : 981 Кбит/сек
Ширина : 720 пикселей
Высота : 304 пикселя
Соотношение сторон : 2,35:1
Частота кадров : 23,976 (23976/1000) кадра/сек
Цветовое пространство : YUV
Субдискретизация насыщенности : 4:2:0
Битовая глубина : 8 бит
Тип развёртки : Прогрессивная
Метод сжатия : С потерями
Бит/(Пиксели*Кадры) : 0.187
Размер потока : 619 Мбайт (83%)
Библиотека кодирования : XviD 1.2.1 (UTC 2008-12-04)
Аудио
Идентификатор : 1
Формат : AC-3
Формат/Информация : Audio Coding 3
Расширение режима : CM (complete main)
Параметр Endianness формата : Big
Идентификатор кодека : 2000
Продолжительность : 1 ч. 28 м.
Вид битрейта : Постоянный
Битрейт : 192 Кбит/сек
Каналы : 2 канала
Расположение каналов : Front: L R
Частота : 48,0 КГц
Частота кадров : 31,250 кадров/сек (1536 spf)
Метод сжатия : С потерями
Размер потока : 121 Мбайт (16%)
Выравнивание : Разделение по промежуткам
Продолжительность промежутка : 42 мс. (1,00 видеокадр)
Время предзагрузки промежутка : 500 мс.

Скриншот c названием фильма

Скриншоты

Вы не можете начинать темы
Вы не можете отвечать на сообщения
Вы не можете редактировать свои сообщения
Вы не можете удалять свои сообщения
Вы не можете голосовать в опросах
Вы не можете прикреплять файлы к сообщениям
Вы можете скачивать файлы
Sitemap