Watch Movie | The Enforcer | January 2018 (1899)

Лавинг / Loving (Джефф Николс / Jeff Nichols) [2016, Великобритания, США, драма, биография, WEB-DLRip] Dub 

Цитировать
Лавинг / Loving
Страна: Великобритания, США
Жанр: драма, биография
Год выпуска: 2016
Продолжительность: 02:03:02
Перевод: Профессиональный (дублированный)
Субтитры: нет
Оригинальная аудиодорожка: нет-Режиссер: Джефф Николс / Jeff Nichols-В ролях: Рут Негга, Джоэл Эдгертон, Уилл Далтон, Дин Мамфорд, Терри Эбни, Алано Миллер, Крис Дж., Бенжамин Букер, Джастин Робинсон-Описание: В 1958 году в штате Вирджиния Ричард и Милдред Лавинг приговорены к тюремному заключению за вступление в межрасовый брак...-Качество видео: WEB-DLRip | Loving.2016.1080p.WEB-DL.Rus.Eng.HDCLUB
Формат видео: AVI
Видео: 688x288 (2.39:1), 23.976 fps, XviD build 73 ~706 kbps avg, 0.15 bit/pixel
Аудио: 48 kHz, MPEG Layer 3, 2 ch, ~128.00 kbps avg-Сэмпл-

MediaInfo

Format                      : AVI
Format/Info                 : Audio Video Interleave
File size                   : 745 MiB
Duration                    : 2 h 3 min
Overall bit rate            : 844 kb/s
Writing application         : VirtualDubMod 1.5.10.3 | www.virtualdub-fr.org || (build 2550/release)
Writing library             : VirtualDubMod build 2550/release
Video
ID                          : 0
Format                      : MPEG-4 Visual
Format profile              : Advanced Simple@L5
Format settings, BVOP       : 1
Format settings, QPel       : No
Format settings, GMC        : No warppoints
Format settings, Matrix     : Custom
Codec ID                    : XVID
Codec ID/Hint               : XviD
Duration                    : 2 h 3 min
Bit rate                    : 707 kb/s
Width                       : 688 pixels
Height                      : 288 pixels
Display aspect ratio        : 2.40:1
Frame rate                  : 23.976 (24000/1001) FPS
Color space                 : YUV
Chroma subsampling          : 4:2:0
Bit depth                   : 8 bits
Scan type                   : Progressive
Compression mode            : Lossy
Bits/(Pixel*Frame)          : 0.149
Stream size                 : 624 MiB (84%)
Writing library             : XviD 73
Audio
ID                          : 1
Format                      : MPEG Audio
Format version              : Version 1
Format profile              : Layer 3
Codec ID                    : 55
Codec ID/Hint               : MP3
Duration                    : 2 h 3 min
Bit rate mode               : Constant
Bit rate                    : 128 kb/s
Channel(s)                  : 2 channels
Sampling rate               : 48.0 kHz
Compression mode            : Lossy
Stream size                 : 113 MiB (15%)
Alignment                   : Aligned on interleaves
Interleave, duration        : 42  ms (1.00 video frame)
Interleave, preload duratio : 504  ms
Writing library             : LAME3.99r
Encoding settings           : -m s -V 4 -q 2 -lowpass 17 -b 128

Скриншоты

Вы не можете начинать темы
Вы не можете отвечать на сообщения
Вы не можете редактировать свои сообщения
Вы не можете удалять свои сообщения
Вы не можете голосовать в опросах
Вы не можете прикреплять файлы к сообщениям
Вы можете скачивать файлы
Sitemap